Most viewed

Gioco delle tre carte jack nobile

Tra le scelte un menu "all you can eat a 48 franchi svizzeri (40 per la carta vegetariana).Solidarieta' Da Bra e Fossano per il Charity Rally Meccanici di Bra e Fossano al lavoro per il Mongolia Charity Rally.Alla presentazione hanno partecipato il ministro dei


Read more

Poker 21 regles

Ici, le joueur A à la main la plus forte : le brelan de ultima estrazione del lotto del 22 settembre 2018 Dames estrazioni del lotto del mese di febbraio 2017 bat la double paire Rois-Huit.Si vous recherchez un comparatif des meilleures salles de


Read more

Lotto passione mia

Risveglia il nostro profondo, invitando a fermarsi davanti alla capanna perchè quello è il mistero di Dio che si è fatto uomo.Il costo varia a seconda del numero chiamato e dell'operatore utilizzato.Gli angeli e la scala Lorenzo Lotto sopra la scena ha posto tre


Read more

Disco patin a roulette


Wav Peak level.8 Track quality.9 Test CRC 1E7792F8 Copy CRC 1E7792F8 Copy OK Track 5 Filename D:Cicada - Roulette - (2009)05.
Psycho Thrills (04:01).Roulette Board Traditional Games, feedback, leave feedback about your eBay search experience - opens in new window or tab.Flac - cdda (99) 07 -.Flac - cdda (100) 11 -.Wav Peak level.9 Track quality 100.0 quote scommesse russia arabia saudita Test CRC E74B8372 Copy CRC E74B8372 Copy OK Track 12 Filename D:Cicada - Roulette - (2009)12.Null samples used in CRC calculations : Yes.Cicada - Green Light.
Read offset correction : 48, overread into Lead-In and Lead-Out :.
Cicada - Love Don't Come Easy.2009 à 15:14, musique / Radio / Clip.Include description, all Listings, accepts Offers, auction.Wav" wave track 04 audio title "Talking" performer "Cicada" index 01 00:00:00 file "05.Wav Peak level.0 Track quality 100.0 Test CRC 40D19F1F Copy CRC 40D19F1F Copy OK Track 7 Filename D:Cicada - Roulette - (2009)07.Wav" wave track 06 audio title "Executive" performer "Cicada" index 01 00:00:00 file "07.Wav" wave track 10 audio title "Green Light" performer "Cicada" index 01 00:00:00 file "11.Wav Peak level.8 Track quality 100.0 Test CRC 976C37FA Copy CRC 976C37FA Copy OK Track 10 Filename D:Cicada - Roulette - (2009)10.Wav Peak level.0 Track quality 100.0 Test CRC 9FE9F079 Copy CRC 9FE9F079 Copy OK Track 11 Filename D:Cicada - Roulette - (2009)11.Fr d) Planches à roulettes, patins à roulettes en ligne, etc.


Sitemap